#TITLE:300;
#SUBTITLE:OOOOWWWWWNEDHAHAHAHA;
#ARTIST:Detach M-Style;
#TITLETRANSLIT:;
#SUBTITLETRANSLIT:;
#ARTISTTRANSLIT:;
#CREDIT:SulferDragon;
#BANNER:300-banner.png;
#BACKGROUND:owned-bg.PNG;
#LYRICSPATH:;
#CDTITLE:!SulferDragon.png;
#MUSIC:300.mp3;
#OFFSET:-0.034;
#SAMPLESTART:39.391;
#SAMPLELENGTH:12.000;
#SELECTABLE:YES;
#BPMS:0.000=140.000,48.000=150.000,80.000=160.000,112.000=170.000,144.000=180.000,176.000=190.000,208.000=200.000,240.000=210.000,272.000=220.000,304.000=230.000,320.000=240.000,336.000=250.000,352.000=260.000,368.000=270.000,384.000=280.000,400.000=290.000,416.000=300.000,464.000=2.000;
#STOPS:;
#BGCHANGES:;
// cache tags:
#FIRSTBEAT:0.000;
#LASTBEAT:464.125;
#SONGFILENAME:Songs/nhac/300 (SulferDragon)/300.sm;
#HASMUSIC:1;
#HASBANNER:0;
#MUSICLENGTH:149.080;
// end cache tags

//---------------dance-single - ----------------
#NOTES:
     dance-single:
     :
     Hard:
     98:
     1.000,1.000,1.000,1.000,1.000,1382.000,589.000,200.000,0.000,198.000:
1100
0000
0000
0001
0000
0000
0010
0000
1000
0000
0000
0100
0000
0000
0010
0000
,
1000
0000
0000
0001
0000
0000
0010
0000
1000
0000
0000
0100
0000
0000
0010
0000
,
1000
0000
0000
0001
0000
0000
0010
0000
1000
0000
0000
0100
0000
0000
0010
0000
,
1000
0000
0000
0001
0000
0000
0010
0000
1000
0000
0000
0100
0000
0000
0010
0000
,
1001
0100
1001
0100
1001
0100
1001
0100
,
1001
0000
0100
0000
1001
0000
0100
0000
1001
0000
0100
0000
1001
0000
0011
1010
,
1001
0100
1001
0100
1001
0100
1001
0100
,
1001
0000
0000
0000
0100
0000
0000
0000
1001
0000
0000
0000
0100
0000
0000
0000
1001
0000
0000
0000
0100
0000
0000
0000
1001
0000
0001
0100
0010
0000
1000
0000
,
1001
0000
0000
0000
0100
0000
0000
0000
1001
0000
0000
0000
0100
0000
0000
0000
1001
0000
0000
0000
0100
0000
0000
0000
1001
0000
0001
0100
0010
0000
1000
0000
,
1001
0000
0000
0000
0100
0000
0000
0000
1001
0000
0000
0000
0100
0000
0000
0000
1001
0000
0000
0000
0100
0000
0000
0000
1001
0100
0001
0100
0001
0000
0000
0000
,
1001
0000
0000
0000
0100
0000
0000
0000
1001
0100
0001
0100
0001
0000
0000
0000
1001
0000
0000
0000
0100
0000
0000
0000
1001
0100
0001
0100
0001
0000
0000
0000
,
1001
0000
0100
0000
0011
0000
1100
0000
1001
0000
0100
0000
0011
0000
1100
0000
1001
0000
0100
0010
0100
0010
0100
0010
0100
0000
0000
0000
0000
0000
0000
0000
,
1001
0010
0100
0000
1011
0100
0010
0000
1001
0010
0100
0000
1011
0100
0010
0000
,
1001
0010
0100
0000
1011
0100
0010
0000
1001
0010
0100
0000
1011
0100
1011
0000
,
1001
0010
0100
0000
1011
0100
0010
0000
1001
0010
0100
0000
1011
0100
0010
0000
,
1001
0010
0100
0000
1011
0100
0010
0000
1001
0010
0100
1001
1011
0100
1011
0000
,
1001
1001
0110
0000
1011
0100
0010
0000
1001
1001
0110
0000
1011
0100
0011
0000
,
1001
1001
0110
0000
1011
0100
0010
0000
1001
1001
0110
0000
1011
0100
0011
0000
,
1001
1001
0110
0000
1011
0100
0010
0000
1001
1001
0110
0000
1011
0100
0011
0000
,
1001
1001
0110
0000
1011
0100
0010
0000
1001
1001
0110
1001
1011
0100
1011
0000
,
0110
0001
0110
0001
0110
0001
0110
0001
,
0110
0001
0110
0001
0110
0001
0110
0110
,
0110
0001
0110
0001
0110
0001
0110
0001
,
0110
0000
0000
0000
0001
0010
0100
1000
0110
1000
0010
1000
0010
1000
0010
1000
0110
1000
0001
0000
0100
0000
1001
0000
0110
0000
1000
0000
0001
0000
1000
0000
,
0210
0300
0001
2000
3111
0000
2001
3000
2010
3000
0001
2000
3111
0000
2001
3000
,
0210
0300
1000
0020
1131
0000
1002
0003
0120
0030
1000
0002
1113
0000
0120
0030
,
0210
0000
0300
0000
0012
0003
2000
0000
3111
0000
2000
3000
0012
0000
0003
0000
0210
0000
0300
0000
0001
0000
0200
0000
1311
0000
0000
0000
1002
0000
0003
0000
,
0210
0000
0300
0000
0012
0003
2000
0000
3111
0000
2000
3000
0012
0000
0003
0000
0210
0000
0300
0000
0001
0000
1020
0000
1131
0000
0000
0000
1201
0000
0300
0000
,
1001
0010
0100
0000
1011
0100
0010
0000
1001
0010
0100
0000
1011
0100
0010
0000
,
1001
0010
0100
0000
1011
0100
0010
0000
1001
0010
0100
0000
1011
0100
1011
0000
,
1001
0010
0100
0000
1011
0100
0010
0000
1001
0010
0100
0000
1011
0100
0010
0000
,
1001
0000
0010
0000
0100
0001
0010
0100
1011
0100
0001
0100
0001
0100
0001
0100
1001
0100
0010
0000
1000
0000
0110
0000
1011
0000
0100
0000
1011
0000
0100
0000
,
1001
0010
1100
0000
1011
0100
0011
0000
1001
0010
1100
0000
1011
0100
0011
0000
,
1001
0010
1100
0000
1011
0100
0011
0000
1001
0010
1100
0000
1011
0100
1011
0000
,
1001
0010
1100
0000
1011
0100
0011
0000
1001
0010
1100
0000
1011
0100
0011
0000
,
1001
0010
1100
0000
1011
0100
0011
0000
1001
0010
1100
0110
1011
0100
1011
0000
,
0110
0110
0110
0110
,
0110
0000
0000
0000
0110
0001
0100
0001
0110
1000
0010
1000
0110
0001
0110
0001
,
0110
1000
0100
0001
0110
0001
0010
1000
0110
1000
0010
0001
0110
0001
0100
1000
,
0110
0001
0010
0100
0010
0100
0010
1000
0110
0001
0100
0010
1000
0000
0001
0000
0110
0000
1000
0000
0100
0000
1001
0000
0110
0000
0001
0000
0110
0000
0001
0000
,
0110
1000
0100
0001
1110
0001
0100
0001
0110
1000
0010
0001
1110
0001
0010
1000
,
0110
0001
0100
0001
1110
0001
0100
1000
0110
1000
0010
0001
1110
0001
1110
0001
,
0110
0001
0100
0001
1110
0001
0010
1000
0110
1000
0100
0001
1110
0001
0100
0001
,
0110
0001
0100
1000
0110
1000
0010
0001
1110
0001
0010
1001
1110
0001
1110
0001
,
0110
1000
0110
0100
0110
0010
0110
0001
,
0110
1000
0010
1000
0110
0001
0010
0001
0110
1000
0100
1000
0110
0001
0110
0001
,
0110
0000
0100
0001
0110
0001
1000
0000
0110
0000
0100
0001
0110
0001
1000
0000
,
0110
0000
0000
0000
0100
0010
0001
1000
0110
0001
0010
0001
0010
0001
0010
0001
0110
1000
0010
0000
0100
0000
1001
0000
0110
0000
0001
0000
0110
0000
1000
0000
,
0110
0010
0111
0100
0110
0000
0111
0010
,
0110
0000
0000
1000
0111
0000
0001
0000
0110
0000
0100
0000
0111
0000
0111
0000
,
0110
0010
0111
0100
0110
0010
0111
0010
,
0110
1000
0000
0000
0111
0000
0100
0000
0110
1000
0010
0101
1011
0100
1011
0100
,
1001
0010
0000
0010
1001
0000
0100
0000
1001
0000
0000
0000
1001
0000
0000
0000
,
1001
0000
0000
0000
1001
0000
0010
0100
1001
0000
0100
0000
1001
0000
1001
0010
,
1001
0010
0000
0100
1001
0000
0010
0000
1001
0000
0000
0000
1001
0000
0000
0000
,
1001
0100
0001
0100
0001
0100
0001
0100
1001
0100
0010
0100
0010
0000
0100
0000
1001
0000
0010
0000
1000
0000
0110
0000
1001
0000
0000
0000
1001
0000
0000
0000
,
1001
0010
0000
0010
1101
0000
0100
0000
1001
0000
0000
0000
1101
0000
0000
0000
,
1001
0000
0000
0000
1101
0000
0010
0100
1001
0000
0100
0000
1101
0000
1101
0010
,
1001
0010
0000
0010
1101
0000
0010
0000
1001
0000
0000
0000
1101
0000
0000
0000
,
1001
0000
0000
0010
1101
0000
0100
0000
1001
0000
0000
0110
1101
0000
1101
0000
,
1001
0010
0100
0000
1011
0100
0010
0000
1001
0010
0100
0000
1011
0100
0010
0000
,
1001
0010
0100
0000
1011
0100
0010
0000
1001
0010
0100
0000
1011
0100
1011
0000
,
1001
0010
0100
0000
1011
0100
0010
0000
1001
0010
0100
0000
1011
0100
0010
0000
,
1001
0000
0010
0000
0100
0001
1000
0100
1011
0100
0010
0100
0010
0100
0010
0100
1001
0010
0001
0000
0100
0000
1001
0000
1011
0000
0100
0000
1011
0000
0000
0000
,
1001
0010
0100
0000
1011
0100
0010
0000
1001
0010
0100
0000
1011
0100
0011
0000
,
1001
0010
0100
0000
1011
0100
0010
0000
1001
0010
0100
0000
1011
0100
0011
0000
,
1001
0010
0100
0000
1011
0100
0010
0000
1001
0010
0100
0000
1011
0100
0011
0000
,
1001
0010
0100
0000
1011
0100
0010
0000
1001
0010
0100
1001
1011
0100
1011
0000
,
0210
0300
0001
2000
3111
0000
2001
3000
2010
3000
0001
2000
3111
0000
2001
3000
,
0210
0300
1000
0020
1131
0000
1002
0003
0120
0030
1000
0002
1113
0000
0120
0030
,
0210
0000
0300
0000
0012
0003
2000
0000
3111
0000
2000
3000
0012
0000
0003
0000
0210
0000
0300
0000
0001
0000
0200
0000
1311
0000
0000
0000
1002
0000
0003
0000
,
0210
0000
0300
0000
0012
0003
2000
0000
3111
0000
2000
3000
0012
0000
0003
0000
0210
0000
0300
0000
0001
0000
1020
0000
1131
0000
0000
0000
1201
0000
0300
0000
,
0210
0300
0001
2000
3111
0000
2001
3000
2010
3000
0001
2000
3111
0000
2001
3000
,
0210
0300
1000
0020
1131
0000
1002
0003
0120
0030
1000
0002
1113
0000
0120
0030
,
0210
0000
0300
0000
0012
0003
2000
0000
3111
0000
2000
3000
0012
0000
0003
0000
0210
0000
0300
0000
0001
0000
0200
0000
1311
0000
0000
0000
1002
0000
0003
0000
,
0210
0000
0300
0000
0012
0003
2000
0000
3111
0000
2000
3000
0012
0000
0003
0000
0210
0000
0300
0000
0001
0000
1020
0000
1131
0000
0000
0000
1201
0000
0300
0000
,
1001
0010
0100
0000
1011
0100
0010
0000
1001
0010
0100
0000
1011
0100
0010
0000
,
1001
0010
0100
0000
1011
0100
0010
0000
1001
0010
0100
0000
1011
0100
1011
0000
,
1001
0010
0100
0000
1011
0100
0010
0000
1001
0010
0100
0000
1011
0100
0010
0000
,
1001
0010
0100
0000
1011
0100
0010
0000
1001
0010
0100
1001
1011
0100
1011
0000
,
0210
0300
0001
2000
3111
0000
2001
3000
2010
3000
0001
2000
3111
0000
2001
3000
,
0210
0300
1000
0020
1131
0000
1002
0003
0120
0030
1000
0002
1113
0000
0120
0030
,
0210
0000
0300
0000
0012
0003
2000
0000
3111
0000
2000
3000
0012
0000
0003
0000
0210
0000
0300
0000
0001
0000
0200
0000
1311
0000
0000
0000
1002
0000
0003
0000
,
0210
0000
0300
0000
0012
0003
2000
0000
3111
0000
2000
3000
0012
0000
0003
0000
0210
0000
0300
0000
0001
0000
1020
0000
1131
0000
0000
0000
1201
0000
0300
0000
,
1001
0100
0010
0000
1101
0010
0100
0000
1001
0100
0010
0000
1101
0010
0100
0000
,
1001
0100
0010
0000
1101
0010
0100
0000
1001
0100
0010
0000
1101
0010
1101
0000
,
1001
0100
0010
0000
1101
0010
0100
0000
1001
0100
0010
0000
1101
0010
0100
0000
,
1001
0100
0010
0000
1101
0010
0100
0000
1001
0100
0010
1001
1101
0010
1101
0000
,
0120
0030
1000
0002
1113
0000
1002
0003
0102
0003
1000
0002
1113
0000
1002
0003
,
0120
0030
0001
0200
1311
0000
2001
3000
0210
0300
0001
2000
3111
0000
0210
0300
,
0120
0000
0030
0000
2100
3000
0002
0000
1113
0000
0002
0003
2100
0000
3000
0000
0120
0000
0030
0000
1000
0000
0020
0000
1131
0000
0000
0000
2001
0000
3000
0000
,
0120
0000
0030
0000
2100
3000
0002
0000
1113
0000
0002
0003
2100
0000
3000
0000
0120
0000
0030
0000
1000
0000
0201
0000
1311
0000
0000
0000
1021
0000
0030
0000
,
1001
0100
0010
0000
1101
0010
0100
0000
1001
0100
0010
0000
1101
0010
0100
0000
,
1001
0100
0010
0000
1101
0010
0100
0000
1001
0100
0010
0000
1101
0010
1101
0000
,
1001
0100
0010
0000
1101
0010
0100
0000
1001
0100
0010
0000
1101
0010
0100
0000
,
1001
0100
0010
0000
1101
0010
0100
0000
1001
0100
0010
1001
1101
0010
1101
0000
,
0120
0030
1000
0002
1113
0000
1002
0003
0102
0003
1000
0002
1113
0000
1002
0003
,
0120
0030
0001
0200
1311
0000
2001
3000
0210
0300
0001
2000
3111
0000
0210
0300
,
0120
0000
0030
0000
2100
3000
0002
0000
1113
0000
0002
0003
2100
0000
3000
0000
0120
0000
0030
0000
1000
0000
0020
0000
1131
0000
0000
0000
2001
0000
3000
0000
,
0120
0000
0030
0000
2100
3000
0002
0000
1113
0000
0002
0003
2100
0000
3000
0000
0120
0000
0030
0000
1000
0000
0201
0000
1311
0000
0000
0000
1021
0000
0030
0000
,
1001
0010
0100
0000
1011
0100
0010
0000
1001
0010
0100
0000
1011
0100
1011
0000
,
1001
0010
0100
0000
1011
0100
0010
0000
1001
0010
0100
0000
1011
0100
1011
0000
,
1001
0010
0100
0000
1011
0100
0010
0000
1001
0010
0100
0000
1011
0100
1011
1001
,
1001
0010
0100
0000
1011
0100
0010
0000
1001
0010
0100
1001
1011
0100
1011
0100
,
0210
0300
0001
2000
3111
0000
2001
3000
2010
3000
0001
2000
3111
0000
2011
3000
,
0210
0300
1000
0020
1131
0000
1002
0003
0120
0030
1000
0002
1113
0000
0121
0030
,
0210
0000
0300
0000
0012
0003
2000
0000
3111
0000
2000
3000
0012
0000
0003
0000
0210
0000
0300
0000
0001
0000
0200
0000
1311
0000
0000
0000
1102
0000
0113
0000
,
0210
0000
0300
0000
0012
0003
2000
0000
3111
0000
2000
3000
0012
0000
0003
0000
0210
0000
1300
0000
0001
0000
1020
0000
1131
0000
0010
0000
1201
0000
0310
0000
,
1100
0010
0100
0010
0100
0010
0100
0010
0100
0010
0100
0010
0100
0010
0100
0010
,
0100
0010
0100
0010
0100
0010
0100
0010
0100
0010
0100
0010
0100
0010
0100
0010
,
0100
0010
0100
0010
0100
0010
0100
0010
0100
0010
0100
0010
0100
0010
0100
0010
,
0100
0010
0100
0010
0100
0010
0100
0010
0100
0010
0100
0010
0100
0010
0100
0010
,
0100
0010
0100
0010
0100
0010
0100
0010
0100
0010
0100
0010
0100
0010
0100
0010
,
0100
0010
0100
0010
0100
0010
0100
0010
0100
0010
0100
0010
0100
0010
0100
0010
,
0100
0010
0100
0010
0100
0010
0100
0010
0100
0010
0100
0010
0100
0010
0100
0010
,
0100
0010
0100
0010
0100
0010
0100
0010
0100
0010
0100
0010
0100
0010
0100
0010
,
2222
3333
0000
0000
0000
0000
0000
0000
0000
0000
0000
0000
0000
0000
0000
0000
0000
0000
0000
0000
0000
0000
0000
0000
0000
0000
0000
0000
0000
0000
0000
0000
;

//---------------dance-single - ----------------
#NOTES:
     dance-single:
     :
     Challenge:
     99:
     1.000,1.000,1.000,1.000,1.000,1382.000,599.000,202.000,433.000,200.000:
1100
0000
0000
0001
0000
0000
0010
0000
1000
0000
0000
0100
0000
0000
0010
0000
,
1000
0000
0000
0001
0000
0000
0010
0000
1000
0000
0000
0100
0000
0000
0010
0000
,
1000
0000
0000
0001
0000
0000
0010
0000
1000
0000
0000
0100
0000
0000
0010
0000
,
1000
0000
0000
0001
0000
0000
0010
0000
1000
0000
0000
0100
0000
0000
0010
0000
,
1001
0100
1001
0100
1001
0100
1001
0100
,
1001
0000
0100
0000
1001
0000
0100
0000
1001
0000
0100
0000
1001
0000
0011
1010
,
1001
0100
1001
0100
1001
0100
1001
0100
,
1001
0000
0000
0000
0100
0000
0000
0000
1001
0000
0000
0000
0100
0000
0000
0000
1001
0000
0000
0000
0100
0000
0000
0000
1001
0000
0001
0100
0010
0000
1010
0000
,
1001
0000
0000
0000
0100
0000
0000
0000
1001
0000
0000
0000
0100
0000
0000
0000
1001
0000
0000
0000
0100
0000
0000
0000
1001
0000
0001
0100
0010
0000
1010
0000
,
1001
0000
0000
0000
0100
0000
0000
0000
1001
0000
0000
0000
0100
0000
0000
0000
1001
0000
0000
0000
0100
0000
0000
0000
1001
0001
0001
0001
0001
0000
0000
0000
,
1001
0000
0000
0000
0100
0000
0000
0000
1001
0001
0001
0001
0001
0000
0000
0000
1001
0000
0000
0000
0100
0000
0000
0000
1001
0001
0001
0001
0001
0000
0000
0000
,
1001
0000
0000
0000
0100
0000
0000
0000
0011
0000
0000
0000
1100
0000
0000
0000
1001
0000
0000
0000
0100
0000
0000
0000
0011
0000
0000
0000
1100
0000
0000
0000
1001
0000
0000
0000
0010
0000
0010
0000
0010
0000
0010
0000
0010
0000
0010
0000
0010
0000
MMMM
MMMM
MMMM
MMMM
MMMM
MMMM
MMMM
MMMM
MMMM
MMMM
MMMM
MMMM
MMMM
0000
,
1001
0010
0100
0000
1011
0100
0010
0000
1001
0010
0100
0000
1011
0100
0010
0000
,
1001
0010
0100
0000
1011
0100
0010
0000
1001
0010
0100
0000
1011
0100
1011
0000
,
1001
0010
0100
0000
1011
0100
0010
0000
1001
0010
0100
0000
1011
0100
0010
0000
,
1001
0010
0100
0000
1011
0100
0010
0000
1001
0010
0100
1001
1011
0100
1011
0000
,
1001
1001
0110
0000
1011
0100
0010
0000
1001
1001
0110
0000
1011
0100
0011
0000
,
1001
1001
0110
0000
1011
0100
0010
0000
1001
1001
0110
0000
1011
0100
0011
0000
,
1001
1001
0110
0000
1011
0100
0010
0000
1001
1001
0110
0000
1011
0100
0011
0000
,
1001
1001
0110
0000
1011
0100
0010
0000
1001
1001
0110
1001
1011
0100
1011
0000
,
0120
0030
0001
0000
0110
0000
0001
0000
0110
0000
0001
0000
0110
0000
0001
0000
,
0110
0001
0110
0001
0110
0001
0110
0110
,
2010
3000
0001
0000
0110
0000
0001
0000
0110
0000
0001
0000
0110
0000
0001
0000
,
0110
0000
0000
0000
0001
0010
0100
1000
0110
1000
0010
1000
0010
1000
0010
1000
0110
1000
0001
0000
0100
0000
1001
0000
0110
0000
1000
0000
0001
0000
1000
0000
,
0210
0300
0001
2000
3111
0000
2001
3000
2010
3000
0001
2000
3111
0000
2001
3000
,
0210
0300
1000
0020
1131
0000
1002
0003
0120
0030
1000
0002
1113
0000
0120
0030
,
0210
0000
0300
0000
0012
0003
2000
0000
3111
0000
2000
3000
0012
0000
0003
0000
0210
0000
0300
0000
0001
0000
0200
0000
1311
0000
0000
0000
1002
0000
0003
0000
,
0210
0000
0300
0000
0012
0003
2000
0000
3111
0000
2000
3000
0012
0000
0003
0000
0210
0000
0300
0000
0001
0000
1020
0000
1131
0000
0000
0000
1201
0000
0300
0000
,
1001
0010
0100
0000
1011
0100
0010
0000
1001
0010
0100
0000
1011
0100
0010
0000
,
1001
0010
0100
0000
1011
0100
0010
0000
1001
0010
0100
0000
1011
0100
1011
0000
,
1001
0010
0100
0000
1011
0100
0010
0000
1001
0010
0100
0000
1011
0100
0010
0000
,
1001
0000
0010
0000
0100
0001
0010
0100
1011
0100
0001
0100
0001
0100
0001
0100
1001
0100
0010
0000
1000
0000
0110
0000
1011
0000
0100
0000
1011
0000
0100
0000
,
1001
0010
1100
0000
1011
0100
0011
0000
1001
0010
1100
0000
1011
0100
0011
0000
,
1001
0010
1100
0000
1011
0100
0011
0000
1001
0010
1100
0000
1011
0100
1011
0000
,
1001
0010
1100
0000
1011
0100
0011
0000
1001
0010
1100
0000
1011
0100
0011
0000
,
1001
0010
1100
0000
1011
0100
0011
0000
1001
0010
1100
0110
1011
0100
1011
0000
,
0110
0110
0110
0110
,
0110
0000
0000
0000
0110
0001
0100
0001
0110
1000
0010
1000
0110
0001
0110
0001
,
0110
1000
0100
0001
0110
0001
0010
1000
0110
1000
0010
0001
0110
0001
0100
1000
,
0110
0001
0010
0100
0010
0100
0010
1000
0110
0001
0100
0010
1000
0000
0001
0000
0110
0000
1000
0000
0100
0000
1001
0000
0110
0000
0001
0000
0110
0000
0001
0000
,
0110
1000
0100
0001
1110
0001
0100
0001
0110
1000
0010
0001
1110
0001
0010
1000
,
0110
0001
0100
0001
1110
0001
0100
1000
0110
1000
0010
0001
1110
0001
1110
0001
,
0110
0001
0100
0001
1110
0001
0010
1000
0110
1000
0100
0001
1110
0001
0100
0001
,
0110
0001
0100
1000
0110
1000
0010
0001
1110
0001
0010
1001
1110
0001
1110
0001
,
0110
1000
0110
0100
0110
0010
0110
0001
,
0110
1000
0010
1000
0110
0001
0010
0001
0110
1000
0100
1000
0110
0001
0110
0001
,
0110
0000
0100
0001
0110
0001
1000
0000
0110
0000
0100
0001
0110
0001
1000
0000
,
0110
0000
0000
0000
0100
0010
0001
1000
0110
0001
0010
0001
0010
0001
0010
0001
0110
1000
0010
0000
0100
0000
1001
0000
0110
0000
0001
0000
0110
0000
1000
0000
,
0110
0010
0111
0100
0110
0000
0111
0010
,
0110
0000
0000
1000
0111
0000
0001
0000
0110
0000
0100
0000
0111
0000
0111
0000
,
0110
0010
0111
0100
0110
0010
0111
0010
,
0110
1000
0000
0000
0111
0000
0100
0000
0110
1000
0010
0101
1011
0100
1011
0100
,
1001
0010
0000
0010
1001
0000
0100
0000
1001
0000
0000
0000
1001
0000
0000
0000
,
1001
0000
0000
0000
1001
0000
0010
0100
1001
0000
0100
0000
1001
0000
1001
0010
,
1001
0010
0000
0100
1001
0000
0010
0000
1001
0000
0000
0000
1001
0000
0000
0000
,
1001
0100
0001
0100
0001
0100
0001
0100
1001
0100
0010
0100
0010
0000
0100
0000
1001
0000
0010
0000
1000
0000
0110
0000
1001
0000
0000
0000
1001
0000
0000
0000
,
1001
0010
0000
0010
1101
0000
0100
0000
1001
0000
0000
0000
1101
0000
0000
0000
,
1001
0000
0000
0000
1101
0000
0010
0100
1001
0000
0100
0000
1101
0000
1101
0010
,
1001
0010
0000
0010
1101
0000
0010
0000
1001
0000
0000
0000
1101
0000
0000
0000
,
1001
0000
0000
0010
1101
0000
0100
0000
1001
0000
0000
0110
1101
0000
1101
0000
,
1001
0010
0100
0000
1011
0100
0010
0000
1001
0010
0100
0000
1011
0100
0010
0000
,
1001
0010
0100
0000
1011
0100
0010
0000
1001
0010
0100
0000
1011
0100
1011
0000
,
1001
0010
0100
0000
1011
0100
0010
0000
1001
0010
0100
0000
1011
0100
0010
0000
,
1001
0000
0010
0000
0100
0001
1000
0100
1011
0100
0010
0100
0010
0100
0010
0100
1001
0010
0001
0000
0100
0000
1001
0000
1011
0000
0100
0000
1011
0000
0000
0000
,
1001
0010
0100
0000
1011
0100
0010
0000
1001
0010
0100
0000
1011
0100
0011
0000
,
1001
0010
0100
0000
1011
0100
0010
0000
1001
0010
0100
0000
1011
0100
0011
0000
,
1001
0010
0100
0000
1011
0100
0010
0000
1001
0010
0100
0000
1011
0100
0011
0000
,
1001
0010
0100
0000
1011
0100
0010
0000
1001
0010
0100
1001
1011
0100
1011
0000
,
0210
0300
0001
2000
3111
0000
2001
3000
2010
3000
0001
2000
3111
0000
2001
3000
,
0210
0300
1000
0020
1131
0000
1002
0003
0120
0030
1000
0002
1113
0000
0120
0030
,
0210
0000
0300
0000
0012
0003
2000
0000
3111
0000
2000
3000
0012
0000
0003
0000
0210
0000
0300
0000
0001
0000
0200
0000
1311
0000
0000
0000
1002
0000
0003
0000
,
0210
0000
0300
0000
0012
0003
2000
0000
3111
0000
2000
3000
0012
0000
0003
0000
0210
0000
0300
0000
0001
0000
1020
0000
1131
0000
0000
0000
1201
0000
0300
0000
,
0210
0300
0001
2000
3111
0000
2001
3000
2010
3000
0001
2000
3111
0000
2001
3000
,
0210
0300
1000
0020
1131
0000
1002
0003
0120
0030
1000
0002
1113
0000
0120
0030
,
0210
0000
0300
0000
0012
0003
2000
0000
3111
0000
2000
3000
0012
0000
0003
0000
0210
0000
0300
0000
0001
0000
0200
0000
1311
0000
0000
0000
1002
0000
0003
0000
,
0210
0000
0300
0000
0012
0003
2000
0000
3111
0000
2000
3000
0012
0000
0003
0000
0210
0000
0300
0000
0001
0000
1020
0000
1131
0000
0000
0000
1201
0000
0300
0000
,
1001
0010
0100
0000
1011
0100
0010
0000
1001
0010
0100
0000
1011
0100
0010
0000
,
1001
0010
0100
0000
1011
0100
0010
0000
1001
0010
0100
0000
1011
0100
1011
0000
,
1001
0010
0100
0000
1011
0100
0010
0000
1001
0010
0100
0000
1011
0100
0010
0000
,
1001
0010
0100
0000
1011
0100
0010
0000
1001
0010
0100
1001
1011
0100
1011
0000
,
0210
0300
0001
2000
3111
0000
2001
3000
2010
3000
0001
2000
3111
0000
2001
3000
,
0210
0300
1000
0020
1131
0000
1002
0003
0120
0030
1000
0002
1113
0000
0120
0030
,
0210
0000
0300
0000
0012
0003
2000
0000
3111
0000
2000
3000
0012
0000
0003
0000
0210
0000
0300
0000
0001
0000
0200
0000
1311
0000
0000
0000
1002
0000
0003
0000
,
0210
0000
0300
0000
0012
0003
2000
0000
3111
0000
2000
3000
0012
0000
0003
0000
0210
0000
0300
0000
0001
0000
1020
0000
1131
0000
0000
0000
1201
0000
0300
0000
,
1001
0100
0010
0000
1101
0010
0100
0000
1001
0100
0010
0000
1101
0010
0100
0000
,
1001
0100
0010
0000
1101
0010
0100
0000
1001
0100
0010
0000
1101
0010
1101
0000
,
1001
0100
0010
0000
1101
0010
0100
0000
1001
0100
0010
0000
1101
0010
0100
0000
,
1001
0100
0010
0000
1101
0010
0100
0000
1001
0100
0010
1001
1101
0010
1101
0000
,
0120
0030
1000
0002
1113
0000
1002
0003
0102
0003
1000
0002
1113
0000
1002
0003
,
0120
0030
0001
0200
1311
0000
2001
3000
0210
0300
0001
2000
3111
0000
0210
0300
,
0120
0000
0030
0000
2100
3000
0002
0000
1113
0000
0002
0003
2100
0000
3000
0000
0120
0000
0030
0000
1000
0000
0020
0000
1131
0000
0000
0000
2001
0000
3000
0000
,
0120
0000
0030
0000
2100
3000
0002
0000
1113
0000
0002
0003
2100
0000
3000
0000
0120
0000
0030
0000
1000
0000
0201
0000
1311
0000
0000
0000
1021
0000
0030
0000
,
1001
0100
0010
0000
1101
0010
0100
0000
1001
0100
0010
0000
1101
0010
0100
0000
,
1001
0100
0010
0000
1101
0010
0100
0000
1001
0100
0010
0000
1101
0010
1101
0000
,
1001
0100
0010
0000
1101
0010
0100
0000
1001
0100
0010
0000
1101
0010
0100
0000
,
1001
0100
0010
0000
1101
0010
0100
0000
1001
0100
0010
1001
1101
0010
1101
0000
,
0120
0030
1000
0002
1113
0000
1002
0003
0102
0003
1000
0002
1113
0000
1002
0003
,
0120
0030
0001
0200
1311
0000
2001
3000
0210
0300
0001
2000
3111
0000
0210
0300
,
0120
0000
0030
0000
2100
3000
0002
0000
1113
0000
0002
0003
2100
0000
3000
0000
0120
0000
0030
0000
1000
0000
0020
0000
1131
0000
0000
0000
2001
0000
3000
0000
,
0120
0000
0030
0000
2100
3000
0002
0000
1113
0000
0002
0003
2100
0000
3000
0000
0120
0000
0030
0000
1000
0000
0201
0000
1311
0000
0000
0000
1021
0000
0030
0000
,
1001
0010
0100
0000
1011
0100
0010
0000
1001
0010
0100
0000
1011
0100
1011
0000
,
1001
0010
0100
0000
1011
0100
0010
0000
1001
0010
0100
0000
1011
0100
1011
0000
,
1001
0010
0100
0000
1011
0100
0010
0000
1001
0010
0100
0000
1011
0100
1011
1001
,
1001
0010
0100
0000
1011
0100
0010
0000
1001
1001
1001
1001
1011
1001
1011
1001
,
0210
0300
0001
2000
3111
0000
2001
3000
2010
3000
0001
2000
3111
0000
2011
3000
,
0210
0300
1000
0020
1131
0000
1002
0003
0120
0030
1000
0002
1113
0000
0121
0030
,
0210
0000
0300
0000
0012
0003
2000
0000
3111
0000
2000
3000
0012
0000
0003
0000
0210
0000
0300
0000
0001
0000
0200
0000
1311
0000
0000
0000
1102
0000
0113
0000
,
0210
0000
0300
0000
0012
0003
2000
0000
3111
0000
2000
3000
0012
0000
0003
0000
0210
0000
1310
0000
1010
0000
1020
0000
1131
0000
1010
0000
1201
0000
1310
0000
,
1010
MM1M
MM1M
MM1M
MM1M
MM1M
MM1M
MM1M
MM1M
MM1M
MM1M
MM1M
MM1M
MM1M
MM1M
MM1M
,
MM1M
MM1M
MM1M
MM1M
MM1M
MM1M
MM1M
MM1M
MM1M
MM1M
MM1M
MM1M
MM1M
MM1M
MM1M
MM1M
,
MM1M
MM1M
MM1M
MM1M
MM1M
MM1M
MM1M
MM1M
MM1M
MM1M
MM1M
MM1M
MM1M
MM1M
MM1M
MM1M
,
MM1M
MM1M
MM1M
MM1M
MM1M
MM1M
MM1M
MM1M
MM1M
MM1M
MM1M
MM1M
MM1M
MM1M
MM1M
MM1M
,
MM1M
MM1M
MM1M
MM1M
MM1M
MM1M
MM1M
MM1M
MM1M
MM1M
MM1M
MM1M
MM1M
MM1M
MM1M
MM1M
,
MM1M
MM1M
MM1M
MM1M
MM1M
MM1M
MM1M
MM1M
MM1M
MM1M
MM1M
MM1M
MM1M
MM1M
MM1M
MM1M
,
MM1M
MM1M
MM1M
MM1M
MM1M
MM1M
MM1M
MM1M
MM1M
MM1M
MM1M
MM1M
MM1M
MM1M
MM1M
MM1M
,
MM1M
MM1M
MM1M
MM1M
MM1M
MM1M
MM1M
MM1M
MM1M
MM1M
MM1M
MM1M
MM1M
MM1M
MM1M
MM1M
,
2222
3333
0000
0000
0000
0000
0000
0000
0000
0000
0000
0000
0000
0000
0000
0000
0000
0000
0000
0000
0000
0000
0000
0000
0000
0000
0000
0000
0000
0000
0000
0000
;
